<?xml version="1.0" standalone="no"?>
<!DOCTYPE svg PUBLIC "-//W3C//DTD SVG 1.1//EN" "http://www.w3.org/Graphics/SVG/1.1/DTD/svg11.dtd">
<svg xmlns="http://www.w3.org/2000/svg">
<defs >
<font id="Ubuntu" horiz-adv-x="589" ><font-face
    font-family="Ubuntu Light"
    units-per-em="1000"
    panose-1="2 11 3 4 3 6 2 3 2 4"
    ascent="932"
    descent="-189"
    alphabetic="0" />
<glyph unicode=" " glyph-name="space" horiz-adv-x="228" />
<glyph unicode="!" glyph-name="exclam" horiz-adv-x="274" d="M172 500Q172 457 171 420T166 347T160 279T152 213H122Q113 280 108 347T102 500V693H172V500ZM192 43Q192 20 178 4T137 -12Q111 -12 97 4T82 43Q82 66 96 82T137 98Q163 98 177 82T192 43Z" />
<glyph unicode="&quot;" glyph-name="quotedbl" horiz-adv-x="392" d="M308 760V722Q308 672 303 621T288 518H255Q247 569 242 620T236 723V760H308ZM156 760V722Q156 672 151 621T136 518H103Q95 569 90 620T84 723V760H156Z" />
<glyph unicode="#" glyph-name="numbersign" horiz-adv-x="653" d="M264 503H449L485 693H546L510 503H606V450H499L460 243H606V189H450L413 0H352L389 189H204L167 0H106L143 189H47V243H153L192 450H47V503H203L239 693H300L264 503ZM214 243H399L439 450H254L214
243Z" />
<glyph unicode="$" glyph-name="dollar" horiz-adv-x="564" d="M314 -109H255V20Q187 21 142 34T75 61L94 117Q107 110 123 103T160 90T208 81T273 77Q312 77 339 85T384 106T409 139T417 179Q417 212 405 234T370 272T315 301T245 328Q218 338 190 350T140 381T103
426T89 490Q89 564 129 604T255 657V776H314V660Q361 659 396 651T456 632L439 577Q422 584 389 593T300 603Q158 603 158 500Q158 472 168 454T197 421T243 396T303 373Q339 359 372 345T431 309T472 258T487 185Q487 115 441 72T314 23V-109Z" />
<glyph unicode="%" glyph-name="percent" horiz-adv-x="831" d="M359 529Q359 485 347 452T314 396T266 362T209 350Q179 350 152 361T104 395T71 451T59 529Q59 573 71 606T104 662T152 696T209 708Q239 708 266 697T314 663T347 607T359 529ZM300 529Q300 586
277 620T209 655Q164 655 141 621T118 529Q118 472 141 438T209 403Q254 403 277 437T300 529ZM472 164Q472 208 484 241T517 297T565 331T622 343Q652 343 679 332T727 298T760 242T772 164Q772 120 760 87T727 31T679 -3T622 -15Q592 -15 565 -4T517 30T484 86T472
164ZM531 164Q531 107 554 73T622 38Q667 38 690 72T713 164Q713 221 690 255T622 290Q577 290 554 256T531 164ZM580 693H646L251 0H185L580 693Z" />
<glyph unicode="&amp;" glyph-name="ampersand" horiz-adv-x="648" d="M486 178Q507 213 520 254T538 338L594 331Q589 282 572 232T525 137Q562 99 591 65T638 0H565Q551 23 532 45T489 91Q447 46 392 19T267 -9Q206 -9 165 8T98 53T61 114T50 179Q50 219 62
250T96 306T145 350T203 383Q159 424 142 463T124 542Q124 581 136 612T171 664T225 697T292 708Q329 708 359 697T409 666T440 619T451 561Q451 524 438 495T404 442T356 401T300 368L486 178ZM267 48Q325 48 370 70T450 130L240 345Q220 335 199 322T160 290T131
243T120 179Q120 156 128 133T153 91T198 60T267 48ZM389 560Q389 599 363 625T294 652Q243 652 217 625T190 549Q190 514 205 480T265 405Q319 431 354 466T389 560Z" />
<glyph unicode="&apos;" glyph-name="quotesingle" horiz-adv-x="240" d="M156 760V722Q156 672 151 621T136 518H103Q95 569 90 620T84 723V760H156Z" />
<glyph unicode="(" glyph-name="parenleft" horiz-adv-x="310" d="M83 299Q83 444 130 566T254 783L301 751Q222 653 186 544T149 299Q149 164 185 55T301 -153L254 -185Q178 -90 131 32T83 299Z" />
<glyph unicode=")" glyph-name="parenright" horiz-adv-x="310" d="M227 299Q227 154 180 32T56 -185L9 -153Q88 -55 124 54T161 299Q161 434 125 543T9 751L56 783Q132 688 179 566T227 299Z" />
<glyph unicode="*" glyph-name="asterisk" horiz-adv-x="472" d="M260 488Q294 454 321 426T379 358L323 317Q309 337 298 355T276 392T257 430T236 471Q225 450 216 431T196 393T175 356T149 317L93 358Q108 378 122 394T150 426T179 456T212 488Q165 495 126
502T39 524L60 589Q84 581 104 573T143 556T181 538T221 518Q217 542 214 563T208 604T204 646T202 693H270Q270 668 269 647T265 605T259 563T251 518Q272 528 291 537T329 556T368 573T412 589L433 524Q386 509 347 502T260 488Z" />
<glyph unicode="+" glyph-name="plus" horiz-adv-x="564" d="M56 317H253V534H311V317H508V261H311V43H253V261H56V317Z" />
<glyph unicode="," glyph-name="comma" horiz-adv-x="246" d="M162 95Q163 86 163 79T163 67Q163 5 146 -52T97 -159L49 -137Q72 -93 81 -45T91 56Q91 68 91 76T89 95H162Z" />
<glyph unicode="-" glyph-name="hyphen" horiz-adv-x="282" d="M28 321H254V258H28V321Z" />
<glyph unicode="." glyph-name="period" horiz-adv-x="246" d="M178 43Q178 20 164 4T123 -12Q97 -12 83 4T68 43Q68 66 82 82T123 98Q149 98 163 82T178 43Z" />
<glyph unicode="/" glyph-name="slash" horiz-adv-x="359" d="M43 -185H-23L318 783H382L43 -185Z" />
<glyph unicode="0" glyph-name="zero" horiz-adv-x="564" d="M59 346Q59 522 117 615T282 708Q388 708 446 615T505 346Q505 171 447 78T282 -15Q176 -15 118 78T59 346ZM434 346Q434 406 427 460T401 557T354 624T282 649Q238 649 209 624T163 557T138 461T130
346Q130 286 137 232T162 136T209 69T282 44Q325 44 354 69T401 135T426 231T434 346Z" />
<glyph unicode="1" glyph-name="one" horiz-adv-x="564" d="M107 551Q167 572 214 604T307 693H353V0H288V594Q277 582 260 569T220 544T174 520T126 501L107 551Z" />
<glyph unicode="2" glyph-name="two" horiz-adv-x="564" d="M456 521Q456 482 442 448T405 381T351 319T290 259Q264 234 240 209T196 158T165 108T153 59V57H480V0H81Q81 2 81 7T80 24Q80 71 97 111T140 188T199 255T262 315Q287 339 309 361T349 408T376 459T386
518Q386 588 349 618T254 649Q222 649 197 641T154 623T122 601T103 584L69 629Q75 636 90 649T129 676T184 698T253 708Q354 708 405 659T456 521Z" />
<glyph unicode="3" glyph-name="three" horiz-adv-x="564" d="M235 45Q330 45 371 84T412 191Q412 235 396 264T351 310T285 335T205 343H195V397H218Q245 397 273 402T325 423T364 463T380 527Q380 560 369 583T340 621T297 641T245 648Q191 648 161 633T112
605L84 656Q94 663 109 672T146 689T192 702T248 708Q300 708 337 695T400 659T437 603T449 532Q449 471 417 433T333 377Q361 370 387 356T435 319T469 264T482 189Q482 145 467 108T421 44T343 1T233 -15Q200 -15 173 -11T124 0T89 12T67 22L84 80Q90 76 104
70T137 59T181 49T235 45Z" />
<glyph unicode="4" glyph-name="four" horiz-adv-x="564" d="M50 228Q68 276 100 336T174 459T263 582T360 693H428V241H514V188H428V0H364V188H50V228ZM364 241V620Q329 584 293 537T225 440T164 338T117 241H364Z" />
<glyph unicode="5" glyph-name="five" horiz-adv-x="564" d="M239 45Q289 45 322 56T376 88T404 134T413 192Q413 232 400 264T354 318T265 351T123 363Q129 414 133 456T140 538T144 615T147 693H459V636H204Q203 617 201 587T197 526T192 465T187 419Q264 417
320 400T412 354T465 284T483 193Q483 149 469 111T424 45T348 1T239 -15Q207 -15 180 -11T131 0T94 12T72 22L89 80Q95 76 109 70T143 59T187 49T239 45Z" />
<glyph unicode="6" glyph-name="six" horiz-adv-x="564" d="M77 275Q77 478 174 583T458 696L462 641Q401 637 350 623T258 578T191 499T154 381Q181 395 219 405T300 416Q356 416 395 399T458 352T493 285T504 205Q504 166 492 127T455 57T391 5T299 -15Q190
-15 134 61T77 275ZM294 359Q248 359 214 349T149 324Q147 307 147 298T147 274Q147 227 153 185T177 111T224 61T298 42Q335 42 361 55T403 91T426 142T434 203Q434 283 399 321T294 359Z" />
<glyph unicode="7" glyph-name="seven" horiz-adv-x="564" d="M175 0Q181 83 205 176T265 356T342 516T423 633H69V693H490V635Q456 594 416 526T339 372T277 190T244 0H175Z" />
<glyph unicode="8" glyph-name="eight" horiz-adv-x="564" d="M282 -15Q233 -15 194 -1T126 38T82 98T66 174Q66 209 76 237T102 288T140 328T186 359Q125 389 103 430T81 519Q81 562 96 597T137 656T201 694T282 708Q334 708 372 693T434 652T470 595T482 529Q482
496 472 469T446 419T410 379T371 350Q441 320 469 275T498 180Q498 137 483 101T439 40T371 0T282 -15ZM429 174Q429 217 413 244T370 288T310 315T242 336Q191 312 163 272T135 174Q135 146 144 122T171 80T217 52T282 41Q319 41 346 51T392 80T420 122T429 174ZM149
526Q149 498 155 475T180 434T230 400T314 370Q360 396 387 434T414 529Q414 552 407 574T384 613T343 641T282 652Q249 652 224 642T183 615T158 574T149 526Z" />
<glyph unicode="9" glyph-name="nine" horiz-adv-x="564" d="M490 418Q490 209 390 104T98 -2L96 52Q162 52 217 67T312 113T378 194T413 314Q386 300 348 290T267 279Q211 279 172 296T109 343T74 410T63 489Q63 527 75 566T112 636T176 688T268 708Q377 708
433 632T490 418ZM273 336Q319 336 353 346T418 371Q419 383 419 394T420 419Q420 466 414 508T390 582T343 632T269 651Q232 651 206 638T164 602T141 551T133 491Q133 412 168 374T273 336Z" />
<glyph unicode=":" glyph-name="colon" horiz-adv-x="246" d="M178 43Q178 20 164 4T123 -12Q97 -12 83 4T68 43Q68 66 82 82T123 98Q149 98 163 82T178 43ZM178 462Q178 439 164 423T123 407Q97 407 83 423T68 462Q68 485 82 501T123 517Q149 517 163 501T178 462Z" />
<glyph unicode=";" glyph-name="semicolon" horiz-adv-x="246" d="M162 95Q163 86 163 79T163 67Q163 5 146 -52T97 -159L49 -137Q72 -93 81 -45T91 56Q91 68 91 76T89 95H162ZM178 462Q178 439 164 423T123 407Q97 407 83 423T68 462Q68 485 82 501T123 517Q149
517 163 501T178 462Z" />
<glyph unicode="&lt;" glyph-name="less" horiz-adv-x="564" d="M131 288L508 130L488 75L55 259V317L488 501L508 446L131 288Z" />
<glyph unicode="=" glyph-name="equal" horiz-adv-x="564" d="M56 212H508V156H56V212ZM56 422H508V366H56V422Z" />
<glyph unicode="&gt;" glyph-name="greater" horiz-adv-x="564" d="M55 446L75 501L508 317V259L75 75L55 130L432 288L55 446Z" />
<glyph unicode="?" glyph-name="question" horiz-adv-x="380" d="M161 650Q94 650 39 620L20 674Q41 686 80 697T168 708Q221 708 256 695T313 660T343 611T352 558Q352 522 339 494T306 442T264 396T221 351T188 300T175 240Q175 229 175 224T176 213H124Q122
223 121 234T120 258Q120 292 132 318T162 368T201 411T240 453T270 499T282 555Q282 583 272 601T246 631T207 646T161 650ZM210 43Q210 20 196 4T155 -12Q129 -12 115 4T100 43Q100 66 114 82T155 98Q181 98 195 82T210 43Z" />
<glyph unicode="@" glyph-name="at" horiz-adv-x="940" d="M687 58Q655 58 636 69T607 93Q589 81 558 69T490 57Q444 57 406 70T339 111T294 181T278 280Q278 327 292 368T334 439T402 487T495 505Q543 505 581 497T642 479V186Q642 147 655 130T691 113Q725 113
746 134T780 188T798 257T803 324Q803 389 781 448T718 551T616 622T480 649Q403 649 340 625T232 553T162 438T137 281Q137 188 164 118T240 1T353 -69T495 -93Q553 -93 586 -88T631 -78L638 -133Q621 -138 581 -144T495 -150Q408 -150 331 -125T197 -46T106 89T72
281Q72 388 104 468T191 601T321 680T480 706Q560 706 630 679T754 602T837 481T868 322Q868 257 854 208T816 125T758 75T687 58ZM486 111Q520 111 541 116T585 136Q581 146 580 161T578 188V442Q570 444 552 447T502 451Q464 451 435 439T385 404T355 350T345
281Q345 237 356 205T386 152T431 121T486 111Z" />
<glyph unicode="A" glyph-name="A" horiz-adv-x="641" d="M556 0Q537 51 520 98T487 190H150Q133 145 116 98T81 0H10Q50 108 85 201T153 378T220 539T290 693H350Q387 616 420 539T486 379T555 202T631 0H556ZM318 615Q280 529 245 440T171 248H466Q428 351 392
440T318 615Z" />
<glyph unicode="B" glyph-name="B" horiz-adv-x="630" d="M256 -6Q239 -6 217 -5T171 -1T126 5T90 13V680Q108 685 130 688T175 694T221 698T263 699Q319 699 369 690T458 660T518 605T541 519Q541 463 513 424T436 369Q466 362 491 349T535 316T564 266T575 195Q575
97 497 46T256 -6ZM158 332V59Q173 57 203 55T264 52Q310 52 353 58T430 80T483 124T503 196Q503 236 489 262T449 304T386 326T302 332H158ZM158 390H290Q327 390 360 395T417 415T456 454T470 517Q470 551 455 574T413 613T347 634T263 641Q226 641 201 639T158
634V390Z" />
<glyph unicode="C" glyph-name="C" horiz-adv-x="609" d="M378 -15Q311 -15 254 9T154 79T87 192T62 347Q62 434 88 501T159 615T261 684T382 708Q421 708 453 703T509 691T550 676T576 662L554 603Q529 618 491 632T395 647Q330 647 282 625T200 563T151 468T134
346Q134 277 150 222T199 127T277 67T384 46Q450 46 494 58T562 84L581 26Q574 21 557 15T514 1T454 -10T378 -15Z" />
<glyph unicode="D" glyph-name="D" horiz-adv-x="702" d="M640 347Q640 258 612 192T534 82T413 16T259 -6Q217 -6 171 -2T90 12V680Q125 690 171 694T259 699Q343 699 413 677T533 611T612 501T640 347ZM158 60Q164 59 188 56T267 53Q342 53 398 73T492 132T549
224T568 347Q568 415 549 469T492 561T398 619T267 640Q213 640 189 637T158 633V60Z" />
<glyph unicode="E" glyph-name="E" horiz-adv-x="555" d="M90 0V693H490V634H158V393H454V335H158V59H516V0H90Z" />
<glyph unicode="F" glyph-name="F" horiz-adv-x="520" d="M90 0V693H485V634H158V390H448V331H158V0H90Z" />
<glyph unicode="G" glyph-name="G" horiz-adv-x="658" d="M522 328H590V19Q571 11 516 -1T379 -14Q311 -14 253 10T153 79T86 192T62 347Q62 434 88 501T158 614T262 684T388 708Q465 708 515 692T588 660L565 602Q537 622 489 634T385 647Q333 647 287 628T207
571T154 477T134 347Q134 278 150 223T198 128T279 67T390 46Q441 46 475 51T522 62V328Z" />
<glyph unicode="H" glyph-name="H" horiz-adv-x="692" d="M534 693H602V0H534V333H158V0H90V693H158V392H534V693Z" />
<glyph unicode="I" glyph-name="I" horiz-adv-x="248" d="M90 693H158V0H90V693Z" />
<glyph unicode="J" glyph-name="J" horiz-adv-x="487" d="M400 218Q400 168 390 126T356 52T291 3T189 -15Q153 -15 123 -9T70 7T32 26T8 44L40 99Q49 91 62 82T94 64T134 51T182 46Q259 46 295 86T332 225V693H400V218Z" />
<glyph unicode="K" glyph-name="K" horiz-adv-x="599" d="M513 0Q479 52 437 103T347 199T252 281T158 343V0H90V693H158V370Q196 404 242 448T334 538T420 624T484 693H566Q537 662 496 620T409 532T318 444T236 367Q265 349 298 323T366 265T434 199T497 129T550
61T589 0H513Z" />
<glyph unicode="L" glyph-name="L" horiz-adv-x="502" d="M484 59V0H90V693H158V59H484Z" />
<glyph unicode="M" glyph-name="M" horiz-adv-x="865" d="M401 100Q391 125 373 166T331 255T284 355T238 452T199 531T174 579Q161 454 154 308T140 0H73Q82 189 93 362T122 693H182Q212 643 246 578T313 442T378 303T434 179Q458 234 489 302T554 441T622 577T686
693H743Q760 535 771 362T792 0H723Q717 161 710 307T689 579Q681 565 664 531T625 452T579 356T532 256T491 166T462 100H401Z" />
<glyph unicode="N" glyph-name="N" horiz-adv-x="709" d="M562 0Q543 35 514 82T449 182T375 292T298 402T223 503T157 584V0H90V693H144Q195 636 253 562T368 410T472 258T552 129V693H619V0H562Z" />
<glyph unicode="O" glyph-name="O" horiz-adv-x="774" d="M712 347Q712 258 686 190T616 77T512 8T387 -15Q321 -15 262 8T159 76T88 190T62 347Q62 436 88 503T158 616T262 685T387 708Q453 708 512 685T615 617T686 504T712 347ZM640 347Q640 417 622 472T571
567T492 626T387 647Q329 647 283 627T203 567T152 473T134 347Q134 277 152 222T203 127T282 67T387 46Q445 46 491 67T571 127T622 221T640 347Z" />
<glyph unicode="P" glyph-name="P" horiz-adv-x="592" d="M265 699Q412 699 484 643T556 484Q556 425 535 384T475 317T380 280T252 268H158V0H90V680Q126 690 174 694T265 699ZM268 640Q230 640 204 638T158 633V327H244Q299 327 343 333T419 357T468 406T485
485Q485 531 467 561T418 608T348 633T268 640Z" />
<glyph unicode="Q" glyph-name="Q" horiz-adv-x="774" d="M712 347Q712 267 691 205T634 98T549 26T444 -10Q448 -38 469 -58T521 -92T589 -114T661 -128L647 -185Q609 -178 565 -168T482 -138T413 -90T375 -15Q311 -13 254 11T155 80T87 193T62 347Q62 436 88
503T158 616T262 685T387 708Q453 708 512 685T615 617T686 504T712 347ZM640 347Q640 417 622 472T571 567T492 626T387 647Q329 647 283 627T203 567T152 473T134 347Q134 277 152 222T203 127T282 67T387 46Q445 46 491 67T571 127T622 221T640 347Z" />
<glyph unicode="R" glyph-name="R" horiz-adv-x="618" d="M552 485Q552 407 511 362T403 297Q419 277 444 243T497 169T550 84T594 0H521Q500 40 476 80T426 157T376 227T334 283Q302 280 270 280H158V0H90V680Q126 690 174 694T264 699Q407 699 479 645T552 485ZM272
640Q234 640 206 638T158 633V338H252Q299 338 341 342T414 362T463 407T481 486Q481 532 463 562T416 609T350 633T272 640Z" />
<glyph unicode="S" glyph-name="S" horiz-adv-x="517" d="M239 44Q320 44 365 73T410 169Q410 207 396 232T357 275T302 305T237 332Q194 349 160 367T102 407T66 459T53 527Q53 616 112 662T276 708Q304 708 331 704T381 694T424 679T457 662L433 605Q404 625
363 637T273 649Q240 649 213 643T165 622T134 585T122 532Q122 500 134 478T167 440T218 411T281 384Q322 367 358 350T422 310T465 254T481 173Q481 79 416 32T238 -15Q198 -15 165 -10T106 2T62 18T34 32L56 91Q66 85 83 77T123 62T175 49T239 44Z" />
<glyph unicode="T" glyph-name="T" horiz-adv-x="548" d="M530 693V634H308V0H240V634H18V693H530Z" />
<glyph unicode="U" glyph-name="U" horiz-adv-x="680" d="M340 -15Q271 -15 223 6T144 64T101 150T87 257V693H155V266Q155 209 168 168T206 99T264 59T340 46Q382 46 416 59T474 99T511 167T525 266V693H593V257Q593 200 580 151T536 64T458 6T340 -15Z" />
<glyph unicode="V" glyph-name="V" horiz-adv-x="624" d="M86 693Q116 604 144 525T199 371T254 225T314 80Q345 152 373 223T429 369T484 524T542 693H614Q568 562 532 463T464 284T404 137T344 0H281Q250 69 221 136T161 284T93 463T10 693H86Z" />
<glyph unicode="W" glyph-name="W" horiz-adv-x="921" d="M491 608Q539 447 587 317T682 77Q717 195 751 355T818 693H885Q867 586 849 493T810 315T768 153T720 0H647Q623 57 600 114T553 231T507 358T460 498Q436 424 413 358T366 232T320 114T272 0H200Q173
75 151 152T109 314T72 492T36 693H106Q121 605 137 521T170 357T206 208T243 77Q286 188 335 317T432 608H491Z" />
<glyph unicode="X" glyph-name="X" horiz-adv-x="608" d="M490 693H566L343 368Q408 276 470 184T578 0H504Q489 30 466 69T415 151T358 237T301 318Q274 280 245 237T188 151T137 69T98 0H27Q73 91 135 183T261 366L38 693H116L303 414L490 693Z" />
<glyph unicode="Y" glyph-name="Y" horiz-adv-x="569" d="M251 0V285Q180 394 121 495T10 693H89Q131 605 181 515T287 342Q340 424 391 514T485 693H559Q506 598 447 496T319 287V0H251Z" />
<glyph unicode="Z" glyph-name="Z" horiz-adv-x="560" d="M510 631Q486 603 455 563T387 476T314 375T240 267T171 159T112 59H520V0H38V51Q60 94 90 145T156 251T229 361T304 466T374 560T436 634H57V693H510V631Z" />
<glyph unicode="[" glyph-name="bracketleft" horiz-adv-x="310" d="M100 783H302V733H162V-135H302V-185H100V783Z" />
<glyph unicode="\" glyph-name="backslash" horiz-adv-x="359" d="M-23 783H41L382 -185H316L-23 783Z" />
<glyph unicode="]" glyph-name="bracketright" horiz-adv-x="310" d="M210 -185H8V-135H148V733H8V783H210V-185Z" />
<glyph unicode="^" glyph-name="asciicircum" horiz-adv-x="564" d="M502 356L453 330L282 638L111 330L62 356L250 693H314L502 356Z" />
<glyph unicode="_" glyph-name="underscore" horiz-adv-x="490" d="M-5 -129H495V-185H-5V-129Z" />
<glyph unicode="`" glyph-name="grave" horiz-adv-x="376" d="M106 773L264 621L231 583L60 722L106 773Z" />
<glyph unicode="a" glyph-name="a" horiz-adv-x="509" d="M249 47Q287 47 315 49T364 56V238Q353 243 329 248T263 254Q239 254 213 251T165 236T129 204T115 151Q115 122 124 102T151 70T193 53T249 47ZM243 529Q294 529 329 515T387 475T419 414T429 338V12Q419
9 400 6T356 -2T301 -8T238 -11Q197 -11 163 -2T103 26T63 76T48 151Q48 193 64 223T109 272T178 301T265 310Q279 310 294 309T324 305T349 300T364 295V327Q364 354 360 379T343 425T305 458T240 471Q183 471 155 463T114 450L105 507Q122 515 157 522T243 529Z"
/>
<glyph unicode="b" glyph-name="b" horiz-adv-x="583" d="M151 486Q168 499 205 513T294 528Q350 528 393 508T467 452T512 367T528 258Q528 195 510 145T458 60T378 7T274 -12Q205 -12 160 -3T86 16V764L151 776V486ZM151 61Q166 56 195 52T273 47Q357 47 408
101T459 258Q459 301 450 339T421 406T369 452T288 469Q265 469 244 465T205 453T174 438T151 423V61Z" />
<glyph unicode="c" glyph-name="c" horiz-adv-x="460" d="M300 -11Q240 -11 194 8T118 62T71 147T55 257Q55 318 71 368T119 454T194 509T293 529Q335 529 371 522T428 504L411 448Q391 458 366 464T299 470Q213 470 169 415T124 257Q124 211 134 173T166 107T224
64T311 48Q353 48 381 57T423 74L437 18Q419 8 381 -1T300 -11Z" />
<glyph unicode="d" glyph-name="d" horiz-adv-x="583" d="M497 16Q468 6 423 -3T309 -12Q252 -12 206 6T126 60T74 145T55 258Q55 317 70 366T116 452T189 508T289 528Q340 528 377 514T432 486V764L497 776V16ZM432 423Q423 430 410 438T378 453T339 464T295
469Q247 469 215 452T162 407T133 340T124 258Q124 156 175 102T310 47Q358 47 387 51T432 61V423Z" />
<glyph unicode="e" glyph-name="e" horiz-adv-x="548" d="M55 259Q55 327 74 377T125 462T197 512T281 529Q376 529 432 467T489 276Q489 268 489 260T487 245H124Q127 150 171 99T311 48Q364 48 395 58T440 75L452 19Q438 11 400 0T309 -11Q241 -11 193 9T114
65T69 150T55 259ZM422 300Q420 381 384 426T282 471Q247 471 220 457T172 420T140 365T126 300H422Z" />
<glyph unicode="f" glyph-name="f" horiz-adv-x="376" d="M276 776Q318 776 344 770T379 758L366 702Q355 707 334 712T279 718Q210 718 181 683T151 571V517H359V462H151V0H86V573Q86 674 132 725T276 776Z" />
<glyph unicode="g" glyph-name="g" horiz-adv-x="573" d="M423 60Q417 55 405 49T376 35T336 24T285 19Q240 19 198 33T125 77T74 154T55 270Q55 325 72 372T120 453T197 507T300 527Q372 527 415 518T487 499V27Q487 -89 427 -138T246 -188Q196 -188 156 -181T86
-163L99 -104Q123 -115 164 -123T248 -131Q340 -131 381 -96T423 26V60ZM422 454Q405 459 378 463T301 468Q259 468 227 454T171 413T136 350T124 269Q124 218 138 182T174 122T226 89T285 78Q329 78 365 91T422 121V454Z" />
<glyph unicode="h" glyph-name="h" horiz-adv-x="569" d="M86 0V764L151 776V502Q183 514 216 520T282 527Q342 527 382 510T446 462T479 386T489 289V0H424V268Q424 323 417 361T392 423T345 457T272 468Q255 468 236 465T199 459T169 451T151 445V0H86Z" />
<glyph unicode="i" glyph-name="i" horiz-adv-x="237" d="M151 0H86V517H151V0ZM166 673Q166 650 152 637T118 623Q98 623 84 636T70 673Q70 696 84 709T118 723Q138 723 152 710T166 673Z" />
<glyph unicode="j" glyph-name="j" horiz-adv-x="237" d="M-11 -187Q-22 -187 -38 -184T-63 -177L-54 -124Q-47 -126 -35 -128T-12 -130Q47 -130 66 -97T86 2V517H151V5Q151 -93 114 -140T-11 -187ZM166 673Q166 650 152 637T118 623Q98 623 84 636T70 673Q70
696 84 709T118 723Q138 723 152 710T166 673Z" />
<glyph unicode="k" glyph-name="k" horiz-adv-x="495" d="M224 281Q255 260 290 227T360 156T425 77T477 0H400Q376 40 346 78T282 151T215 213T151 260V0H86V764L151 776V284Q176 308 207 339T269 402T329 464T377 517H455Q432 493 403 463T343 401T280 337T224 281Z" />
<glyph unicode="l" glyph-name="l" horiz-adv-x="255" d="M217 -9Q184 -8 160 -1T119 22T94 62T85 124V764L150 776V126Q150 102 154 88T168 65T191 52T226 45L217 -9Z" />
<glyph unicode="m" glyph-name="m" horiz-adv-x="863" d="M86 499Q115 507 161 517T282 527Q380 527 424 470Q429 474 443 483T480 503T531 520T597 527Q656 527 692 510T749 461T776 385T783 289V0H718V268Q718 319 714 356T696 418T657 455T592 468Q562 468
538 463T495 449T466 433T449 421Q458 395 462 363T467 294V0H402V268Q402 319 398 356T379 418T340 455T272 468Q225 468 193 463T151 454V0H86V499Z" />
<glyph unicode="n" glyph-name="n" horiz-adv-x="569" d="M86 499Q115 507 164 517T284 527Q343 527 382 510T445 462T479 386T489 289V0H424V268Q424 323 417 361T392 423T346 457T274 468Q228 468 195 463T151 454V0H86V499Z" />
<glyph unicode="o" glyph-name="o" horiz-adv-x="582" d="M527 258Q527 197 510 147T461 62T386 8T291 -12Q239 -12 196 7T122 62T73 147T55 258Q55 319 72 369T121 454T196 509T291 529Q343 529 386 510T460 455T509 369T527 258ZM458 258Q458 355 413 412T291
470Q214 470 169 413T124 258Q124 161 169 104T291 47Q368 47 413 104T458 258Z" />
<glyph unicode="p" glyph-name="p" horiz-adv-x="583" d="M151 93Q160 86 173 78T205 63T244 52T288 47Q336 47 368 63T421 108T450 175T459 257Q459 359 408 413T273 468Q225 468 196 464T151 454V93ZM151 -185H86V499Q115 509 160 518T274 527Q331 527 377 509T457
455T509 370T528 257Q528 198 513 149T467 64T394 8T294 -12Q243 -12 206 2T151 30V-185Z" />
<glyph unicode="q" glyph-name="q" horiz-adv-x="583" d="M432 454Q417 459 388 463T310 468Q226 468 175 414T124 257Q124 214 133 176T162 109T214 64T295 47Q318 47 339 51T378 63T409 78T432 93V454ZM432 30Q415 17 378 3T289 -12Q233 -12 190 8T116 63T71
148T55 257Q55 320 73 370T125 455T205 508T309 527Q378 527 423 518T497 499V-185H432V30Z" />
<glyph unicode="r" glyph-name="r" horiz-adv-x="374" d="M262 527Q294 527 322 522T362 512L349 456Q341 460 317 464T252 469Q210 469 185 463T151 453V0H86V493Q111 504 155 515T262 527Z" />
<glyph unicode="s" glyph-name="s" horiz-adv-x="428" d="M192 46Q248 46 284 64T321 127Q321 148 315 163T293 190T254 213T193 239Q164 251 138 263T92 292T60 332T48 388Q48 451 95 490T226 529Q279 529 313 520T362 504L347 446Q335 452 307 462T223 472Q201
472 182 468T147 454T123 430T114 394Q114 373 122 358T145 332T183 310T235 288Q265 276 292 264T341 234T375 192T388 130Q388 60 336 24T192 -12Q124 -12 88 -1T40 17L57 76Q60 74 70 70T97 60T137 50T192 46Z" />
<glyph unicode="t" glyph-name="t" horiz-adv-x="387" d="M147 517H353V462H147V187Q147 143 154 116T176 73T210 53T254 48Q295 48 320 57T359 75L375 21Q361 12 326 1T250 -11Q202 -11 170 1T118 39T90 103T82 193V669L147 681V517Z" />
<glyph unicode="u" glyph-name="u" horiz-adv-x="569" d="M483 18Q454 10 405 0T285 -10Q227 -10 188 7T125 55T91 130T80 227V517H145V248Q145 193 153 155T179 94T225 60T295 49Q341 49 375 54T418 63V517H483V18Z" />
<glyph unicode="v" glyph-name="v" horiz-adv-x="480" d="M242 70Q263 113 285 168T327 283T365 403T395 517H460Q442 446 420 377T374 242T323 115T271 0H209Q183 54 157 115T107 242T60 377T20 517H89Q101 464 118 404T156 284T199 169T242 70Z" />
<glyph unicode="w" glyph-name="w" horiz-adv-x="775" d="M419 517Q428 467 442 411T474 296T511 180T551 73Q568 111 587 165T625 280T660 402T688 517H752Q716 365 674 239T580 0H519Q504 35 488 78T454 171T420 275T388 387Q373 330 357 276T323 172T289 79T257
0H195Q144 113 102 239T23 517H92Q103 464 119 403T155 281T193 166T230 74Q249 124 268 181T305 296T337 410T363 517H419Z" />
<glyph unicode="x" glyph-name="x" horiz-adv-x="499" d="M248 234Q226 205 204 173T162 110T124 51T95 0H28Q69 77 114 143T206 274L38 517H114L248 319L384 517H455L290 278Q311 250 335 217T383 149T429 75T471 0H401Q389 22 372 50T335 110T292 173T248 234Z" />
<glyph unicode="y" glyph-name="y" horiz-adv-x="474" d="M227 -11Q194 50 164 116T107 249T58 384T20 517H89Q100 469 117 414T155 299T203 178T259 56Q281 118 298 173T329 282T357 394T386 517H451Q419 372 378 235T289 -16Q270 -61 250 -93T206 -147T149 -178T72
-188Q47 -188 27 -182T1 -173L14 -119Q18 -122 36 -127T75 -133Q103 -133 125 -127T166 -107T198 -69T227 -11Z" />
<glyph unicode="z" glyph-name="z" horiz-adv-x="455" d="M407 464Q384 438 347 392T268 290T185 172T113 55H416V0H38V47Q64 96 102 155T182 271T262 379T328 462H53V517H407V464Z" />
<glyph unicode="{" glyph-name="braceleft" horiz-adv-x="319" d="M132 289Q148 280 161 268T183 236T196 190T201 126V19Q201 -28 203 -59T215 -110T248 -138T311 -146V-196H303Q255 -196 223 -185T173 -153T147 -101T139 -29V165Q139 183 134 200T116 232T86
255T43 264V313Q68 313 86 322T116 345T133 376T139 412V606Q139 646 146 677T172 730T223 762T303 773H311V723Q270 723 248 715T216 688T203 637T201 558V451Q201 414 197 388T183 342T161 311T132 289Z" />
<glyph unicode="|" glyph-name="bar" horiz-adv-x="262" d="M100 783H162V-185H100V783Z" />
<glyph unicode="}" glyph-name="braceright" horiz-adv-x="319" d="M187 289Q171 298 158 310T136 342T123 387T118 451V558Q118 605 116 636T104 687T71 715T8 723V773H16Q64 773 96 762T146 730T172 678T180 606V412Q180 394 185 377T203 345T233 322T276 313V264Q251
264 233 255T203 232T186 201T180 165V-29Q180 -70 173 -101T147 -153T96 -185T16 -196H8V-146Q49 -146 71 -138T103 -111T116 -60T118 19V126Q118 163 122 190T136 236T158 267T187 289Z" />
<glyph unicode="~" glyph-name="asciitilde" horiz-adv-x="564" d="M384 222Q350 222 323 236T272 267T224 298T174 312Q155 312 142 303T121 280T108 253T101 231L50 243Q54 261 62 282T85 322T123 353T180 366Q214 366 241 352T292 321T340 290T390 276Q409
276 422 285T443 308T456 335T463 357L514 345Q509 327 501 306T479 266T441 235T384 222Z" />
<glyph unicode="&#xa0;" glyph-name="uni00A0" horiz-adv-x="228" />
<glyph unicode="&#xa1;" glyph-name="exclamdown" horiz-adv-x="274" d="M172 -185H102V5Q102 91 107 158T122 292H152Q156 259 159 226T166 158T170 86T172 5V-185ZM192 462Q192 439 178 423T137 407Q111 407 97 423T82 462Q82 485 96 501T137 517Q163 517 177
501T192 462Z" />
<glyph unicode="&#xa2;" glyph-name="cent" horiz-adv-x="564" d="M304 34Q256 41 219 63T158 118T120 195T107 290Q107 341 120 385T159 464T221 520T304 550V693H363V552Q394 552 422 546T479 528L462 473Q441 482 413 489T353 496Q266 496 221 445T176 290Q176
246 186 209T219 145T277 103T363 88Q405 88 434 96T476 111L488 57Q482 53 469 49T438 41T402 35T363 31V-109H304V34Z" />
<glyph unicode="&#xa3;" glyph-name="sterling" horiz-adv-x="564" d="M242 364H443V309H242V300Q242 241 239 180T225 57H528V0H149Q160 69 167 141T175 297V309H79V364H175V460Q175 534 190 582T232 657T297 695T380 706Q422 706 453 698T508 678L490 619Q441
645 372 645Q341 645 317 637T276 609T251 554T242 469V364Z" />
<glyph unicode="&#xa4;" glyph-name="currency" horiz-adv-x="564" d="M95 347Q95 380 104 409T130 462L56 538L96 579L172 501Q195 518 223 527T282 536Q313 536 341 527T392 501L468 579L508 538L434 462Q451 439 460 410T469 347Q469 314 460 285T434 232L508
156L468 115L392 193Q369 176 341 167T282 158Q251 158 223 167T172 193L96 115L56 156L130 232Q113 255 104 284T95 347ZM411 347Q411 377 401 402T374 445T333 473T282 483Q255 483 232 473T191 445T163 402T153 347Q153 317 163 292T190 249T231 221T282 211Q309
211 332 221T373 249T401 292T411 347Z" />
<glyph unicode="&#xa5;" glyph-name="yen" horiz-adv-x="564" d="M250 0V115H87V168H250V287H87V340H236Q176 433 125 519T31 693H100Q139 610 186 529T284 371Q335 447 381 528T467 693H533Q490 606 439 520T327 340H478V287H315V168H478V115H315V0H250Z" />
<glyph unicode="&#xa6;" glyph-name="brokenbar" horiz-adv-x="262" d="M100 191H162V-185H100V191ZM100 783H162V407H100V783Z" />
<glyph unicode="&#xa7;" glyph-name="section" horiz-adv-x="482" d="M72 -28Q98 -39 130 -48T221 -58Q247 -58 270 -53T310 -38T338 -11T348 28Q348 49 341 65T319 94T279 118T220 141Q185 153 154 165T99 196T61 242T47 309Q47 337 56 360T80 402T111 433T144
455Q114 477 100 502T85 565Q85 631 129 669T261 708Q321 708 356 699T406 683L390 630Q373 638 342 647T260 657Q211 657 179 638T147 576Q147 535 173 512T262 470Q295 459 326 447T382 417T422 370T437 300Q437 275 429 253T408 212T377 179T341 154Q374 134
392 104T411 37Q411 -35 358 -72T214 -109Q154 -109 117 -100T56 -79L72 -28ZM227 420Q216 424 206 427T190 433Q155 415 132 387T109 317Q109 288 120 269T152 236T199 212T257 191Q267 188 278 184T296 177Q334 196 354 228T375 295Q375 323 362 343T328 377T281
401T227 420Z" />
<glyph unicode="&#xa8;" glyph-name="dieresis" horiz-adv-x="376" d="M148 673Q148 651 135 638T102 625Q82 625 69 638T56 673Q56 695 69 708T102 721Q122 721 135 708T148 673ZM320 673Q320 651 307 638T274 625Q254 625 241 638T228 673Q228 695 241 708T274
721Q294 721 307 708T320 673Z" />
<glyph unicode="&#xa9;" glyph-name="copyright" horiz-adv-x="826" d="M418 142Q379 142 346 156T287 196T248 260T234 348Q234 396 249 433T291 497T351 537T422 551Q471 551 501 538T543 516L524 471Q509 479 486 488T422 498Q367 498 331 459T294 348Q294
274 329 235T426 195Q469 195 493 204T529 221L546 173Q533 165 500 154T418 142ZM752 347Q752 261 724 194T650 81T542 10T413 -15Q346 -15 285 9T177 80T102 194T74 347Q74 432 102 499T176 613T284 683T413 708Q480 708 541 684T649 613T724 500T752 347ZM693
347Q693 416 672 473T614 570T526 633T413 655Q352 655 301 633T212 571T154 473T133 347Q133 278 154 221T212 124T300 61T413 38Q474 38 525 60T614 123T672 221T693 347Z" />
<glyph unicode="&#xaa;" glyph-name="ordfeminine" horiz-adv-x="386" d="M195 379Q217 379 238 380T270 384V504Q257 506 240 508T205 510Q184 510 165 507T132 497T109 478T101 447Q101 415 121 397T195 379ZM189 704Q226 704 252 695T294 668T317 626T324 572V346Q312
343 296 341T262 336T227 333T196 332Q129 332 88 358T46 443Q46 473 58 494T92 529T142 549T203 556Q214 556 232 554T270 548V557Q270 575 268 592T258 624T234 647T189 656Q163 656 139 654T94 644L87 690Q104 695 130 699T189 704Z" />
<glyph unicode="&#xab;" glyph-name="guillemotleft" horiz-adv-x="452" d="M188 72L36 284L188 495L229 469L113 284L229 98L188 72ZM365 72L213 284L365 495L406 469L290 284L406 98L365 72Z" />
<glyph unicode="&#xac;" glyph-name="logicalnot" horiz-adv-x="564" d="M508 48H450V324H56V380H508V48Z" />
<glyph unicode="&#xad;" glyph-name="uni00AD" horiz-adv-x="282" d="M28 321H254V258H28V321Z" />
<glyph unicode="&#xae;" glyph-name="registered" horiz-adv-x="826" d="M521 149Q495 196 467 238T418 306Q411 305 405 305T394 305H331V149H276V536Q299 541 327 544T381 547Q466 547 510 516T555 422Q555 386 535 358T476 315Q484 306 497 288T526 246T556
197T582 149H521ZM331 350H381Q406 350 427 353T463 364T487 387T496 423Q496 444 487 458T462 482T426 495T384 499Q369 499 356 499T331 497V350ZM752 347Q752 261 724 194T650 81T542 10T413 -15Q346 -15 285 9T177 80T102 194T74 347Q74 432 102 499T176 613T284
683T413 708Q480 708 541 684T649 613T724 500T752 347ZM693 347Q693 416 672 473T614 570T526 633T413 655Q352 655 301 633T212 571T154 473T133 347Q133 278 154 221T212 124T300 61T413 38Q474 38 525 60T614 123T672 221T693 347Z" />
<glyph unicode="&#xaf;" glyph-name="overscore" horiz-adv-x="376" d="M56 649V704H321V649H56Z" />
<glyph unicode="&#xb0;" glyph-name="degree" horiz-adv-x="318" d="M159 511Q133 511 110 520T68 545T40 586T29 642Q29 673 39 697T68 738T109 764T159 773Q185 773 208 764T250 739T278 698T289 642Q289 611 279 587T250 546T209 520T159 511ZM159 556Q194
556 217 579T241 642Q241 682 218 705T159 728Q124 728 101 705T77 642Q77 602 100 579T159 556Z" />
<glyph unicode="&#xb1;" glyph-name="plusminus" horiz-adv-x="564" d="M56 56H508V0H56V56ZM56 401H253V618H311V401H508V345H311V128H253V345H56V401Z" />
<glyph unicode="&#xb2;" glyph-name="twosuperior" horiz-adv-x="359" d="M284 600Q284 579 277 561T257 528T230 498T197 471Q171 450 155 434T129 406T116 384T112 365H303V317H55Q54 322 54 327T54 337Q54 367 64 390T89 433T124 469T161 503Q175 515 187 525T208
547T222 572T228 602Q228 635 208 647T161 660Q144 660 130 656T103 645T83 632T70 621L43 659Q60 677 90 692T166 708Q222 708 253 681T284 600Z" />
<glyph unicode="&#xb3;" glyph-name="threesuperior" horiz-adv-x="359" d="M146 357Q203 357 223 376T243 425Q243 446 233 460T207 483T170 495T126 499H113V544H128Q146 544 163 546T194 556T215 576T223 608Q223 637 205 649T155 661Q123 661 101 652T66 633L46
675Q57 684 86 696T157 708Q222 708 249 682T277 613Q277 551 216 526Q253 515 276 490T299 423Q299 400 291 380T264 343T218 318T149 309Q111 309 86 315T45 330L58 377Q72 370 93 364T146 357Z" />
<glyph unicode="&#xb4;" glyph-name="acute" horiz-adv-x="376" d="M316 722L145 583L112 621L270 773L316 722Z" />
<glyph unicode="&#xb5;" glyph-name="mu" horiz-adv-x="575" d="M291 -10Q234 -10 199 5T144 46Q148 14 148 -18T149 -79V-185H86V517H151V248Q151 193 159 155T185 94T231 60T301 49Q347 49 381 54T424 63V517H489V18Q460 10 411 0T291 -10Z" />
<glyph unicode="&#xb6;" glyph-name="paragraph" horiz-adv-x="616" d="M457 638Q443 640 420 641T377 643Q369 643 360 643T346 641V-185H288V264Q233 268 188 283T112 324T63 389T46 480Q46 535 69 576T135 644T235 685T364 699Q396 699 438 697T515 686V-185H457V638Z" />
<glyph unicode="&#xb7;" glyph-name="middot" horiz-adv-x="246" d="M178 294Q178 271 164 255T123 239Q97 239 83 255T68 294Q68 317 82 333T123 349Q149 349 163 333T178 294Z" />
<glyph unicode="&#xb8;" glyph-name="cedilla" horiz-adv-x="376" d="M206 -36Q234 -48 250 -65T267 -112Q267 -124 263 -137T248 -162T218 -180T169 -187Q149 -187 128 -184T98 -175L106 -132Q117 -137 131 -139T165 -141Q206 -141 206 -112Q206 -95 192 -86T148
-65Q151 -55 157 -42T169 -17T180 5T189 20H235Q228 9 220 -7T206 -36Z" />
<glyph unicode="&#xb9;" glyph-name="onesuperior" horiz-adv-x="359" d="M74 578L61 620Q96 631 131 650T191 699H228V317H174V621Q163 613 149 606T120 593T94 583T74 578Z" />
<glyph unicode="&#xba;" glyph-name="ordmasculine" horiz-adv-x="437" d="M391 518Q391 476 378 442T342 383T287 345T218 331Q181 331 150 344T95 382T59 441T46 518Q46 560 59 594T95 653T149 691T218 705Q255 705 287 692T342 654T378 595T391 518ZM332 518Q332
581 301 618T218 656Q167 656 136 619T105 518Q105 455 136 418T218 380Q270 380 301 417T332 518Z" />
<glyph unicode="&#xbb;" glyph-name="guillemotright" horiz-adv-x="452" d="M46 98L162 284L46 469L87 495L239 284L87 72L46 98ZM223 98L339 284L223 469L264 495L416 284L264 72L223 98Z" />
<glyph unicode="&#xbc;" glyph-name="onequarter" horiz-adv-x="874" d="M74 578L61 620Q96 631 131 650T191 699H228V317H174V621Q163 613 149 606T120 593T94 583T74 578ZM601 693H667L272 0H206L601 693ZM840 141V97H789V1H736V97H548V130Q558 150 578 183T625
253T682 325T742 383H789V141H840ZM736 141V320Q719 303 700 280T664 233T631 184T605 141H736Z" />
<glyph unicode="&#xbd;" glyph-name="onehalf" horiz-adv-x="874" d="M74 578L61 620Q96 631 131 650T191 699H228V317H174V621Q163 613 149 606T120 593T94 583T74 578ZM580 693H646L251 0H185L580 693ZM799 284Q799 263 792 245T772 212T745 182T712 155Q686
134 670 118T644 90T631 68T627 49H818V1H570Q569 6 569 11T569 21Q569 51 579 74T604 117T639 153T676 187Q690 199 702 209T723 231T737 256T743 286Q743 319 723 331T676 344Q659 344 645 340T618 329T598 316T585 305L558 343Q575 361 605 376T681 392Q737
392 768 365T799 284Z" />
<glyph unicode="&#xbe;" glyph-name="threequarters" horiz-adv-x="874" d="M146 357Q203 357 223 376T243 425Q243 446 233 460T207 483T170 495T126 499H113V544H128Q146 544 163 546T194 556T215 576T223 608Q223 637 205 649T155 661Q123 661 101 652T66 633L46
675Q57 684 86 696T157 708Q222 708 249 682T277 613Q277 551 216 526Q253 515 276 490T299 423Q299 400 291 380T264 343T218 318T149 309Q111 309 86 315T45 330L58 377Q72 370 93 364T146 357ZM616 693H682L287 0H221L616 693ZM840 141V97H789V1H736V97H548V130Q558
150 578 183T625 253T682 325T742 383H789V141H840ZM736 141V320Q719 303 700 280T664 233T631 184T605 141H736Z" />
<glyph unicode="&#xbf;" glyph-name="questiondown" horiz-adv-x="380" d="M99 -39Q99 -65 109 -82T135 -109T174 -123T222 -128Q288 -128 344 -98L363 -152Q342 -164 303 -175T215 -186Q161 -186 126 -173T69 -139T39 -93T30 -45Q30 -11 42 17T74 69T115 116T157
163T188 214T201 276Q201 282 201 284T200 292H251Q255 275 255 255Q255 223 244 197T215 147T177 102T140 58T111 13T99 -39ZM274 462Q274 439 260 423T219 407Q193 407 179 423T164 462Q164 485 178 501T219 517Q245 517 259 501T274 462Z" />
<glyph unicode="&#xc0;" glyph-name="Agrave" horiz-adv-x="641" d="M556 0Q537 51 520 98T487 190H150Q133 145 116 98T81 0H10Q50 108 85 201T153 378T220 539T290 693H350Q387 616 420 539T486 379T555 202T631 0H556ZM318 615Q280 529 245 440T171 248H466Q428
351 392 440T318 615ZM228 929L386 777L353 739L182 878L228 929Z" />
<glyph unicode="&#xc1;" glyph-name="Aacute" horiz-adv-x="641" d="M556 0Q537 51 520 98T487 190H150Q133 145 116 98T81 0H10Q50 108 85 201T153 378T220 539T290 693H350Q387 616 420 539T486 379T555 202T631 0H556ZM318 615Q280 529 245 440T171 248H466Q428
351 392 440T318 615ZM458 878L287 739L254 777L412 929L458 878Z" />
<glyph unicode="&#xc2;" glyph-name="Acircumflex" horiz-adv-x="641" d="M556 0Q537 51 520 98T487 190H150Q133 145 116 98T81 0H10Q50 108 85 201T153 378T220 539T290 693H350Q387 616 420 539T486 379T555 202T631 0H556ZM318 615Q280 529 245 440T171 248H466Q428
351 392 440T318 615ZM216 740L188 771L320 918L452 771L424 740L320 836L216 740Z" />
<glyph unicode="&#xc3;" glyph-name="Atilde" horiz-adv-x="641" d="M556 0Q537 51 520 98T487 190H150Q133 145 116 98T81 0H10Q50 108 85 201T153 378T220 539T290 693H350Q387 616 420 539T486 379T555 202T631 0H556ZM318 615Q280 529 245 440T171 248H466Q428
351 392 440T318 615ZM383 785Q361 785 343 792T308 807Q289 817 277 820T255 824Q234 824 222 810T200 779L162 797Q167 809 175 823T195 849T222 869T258 877Q280 877 298 870T333 855Q352 845 364 842T386 838Q407 838 419 852T441 883L479 865Q474 853 466
839T446 813T419 793T383 785Z" />
<glyph unicode="&#xc4;" glyph-name="Adieresis" horiz-adv-x="641" d="M556 0Q537 51 520 98T487 190H150Q133 145 116 98T81 0H10Q50 108 85 201T153 378T220 539T290 693H350Q387 616 420 539T486 379T555 202T631 0H556ZM318 615Q280 529 245 440T171 248H466Q428
351 392 440T318 615ZM279 829Q279 807 266 794T233 781Q213 781 200 794T187 829Q187 851 200 864T233 877Q253 877 266 864T279 829ZM451 829Q451 807 438 794T405 781Q385 781 372 794T359 829Q359 851 372 864T405 877Q425 877 438 864T451 829Z" />
<glyph unicode="&#xc5;" glyph-name="Aring" horiz-adv-x="641" d="M415 742Q415 713 402 691T367 657Q401 585 432 512T494 359T559 191T631 0H556Q537 51 520 98T487 190H150Q133 145 116 98T81 0H10Q47 102 80 190T144 358T207 511T272 657Q250 669 237 691T224
742Q224 785 252 811T320 837Q339 837 356 830T387 811T407 781T415 742ZM318 615Q280 529 245 440T171 248H466Q428 351 392 440T318 615ZM377 742Q377 770 361 785T320 801Q296 801 280 786T263 742Q263 713 279 698T320 683Q344 683 360 698T377 742Z" />
<glyph unicode="&#xc6;" glyph-name="AE" horiz-adv-x="915" d="M464 0V190H177Q151 142 126 95T76 0H6Q60 107 113 201T220 379T326 541T433 693H850V634H532V393H814V335H532V59H876V0H464ZM464 637Q395 544 332 448T210 248H464V637Z" />
<glyph unicode="&#xc7;" glyph-name="Ccedilla" horiz-adv-x="609" d="M364 -36Q392 -48 408 -65T425 -112Q425 -124 421 -137T406 -162T376 -180T327 -187Q307 -187 286 -184T256 -175L264 -132Q275 -137 289 -139T323 -141Q364 -141 364 -112Q364 -95 350 -86T306
-65Q310 -54 316 -40T329 -11Q271 -3 222 24T138 96T82 204T62 347Q62 434 88 501T159 615T261 684T382 708Q421 708 453 703T509 691T550 676T576 662L554 603Q529 618 491 632T395 647Q330 647 282 625T200 563T151 468T134 346Q134 277 150 222T199 127T277
67T384 46Q450 46 494 58T562 84L581 26Q574 21 557 15T514 1T454 -10T378 -15H373Q370 -20 368 -25T364 -36Z" />
<glyph unicode="&#xc8;" glyph-name="Egrave" horiz-adv-x="555" d="M90 0V693H490V634H158V393H454V335H158V59H516V0H90ZM198 929L356 777L323 739L152 878L198 929Z" />
<glyph unicode="&#xc9;" glyph-name="Eacute" horiz-adv-x="555" d="M90 0V693H490V634H158V393H454V335H158V59H516V0H90ZM428 878L257 739L224 777L382 929L428 878Z" />
<glyph unicode="&#xca;" glyph-name="Ecircumflex" horiz-adv-x="555" d="M90 0V693H490V634H158V393H454V335H158V59H516V0H90ZM186 740L158 771L290 918L422 771L394 740L290 836L186 740Z" />
<glyph unicode="&#xcb;" glyph-name="Edieresis" horiz-adv-x="555" d="M90 0V693H490V634H158V393H454V335H158V59H516V0H90ZM250 829Q250 807 237 794T204 781Q184 781 171 794T158 829Q158 851 171 864T204 877Q224 877 237 864T250 829ZM422 829Q422 807 409
794T376 781Q356 781 343 794T330 829Q330 851 343 864T376 877Q396 877 409 864T422 829Z" />
<glyph unicode="&#xcc;" glyph-name="Igrave" horiz-adv-x="248" d="M90 693H158V0H90V693ZM33 929L191 777L158 739L-13 878L33 929Z" />
<glyph unicode="&#xcd;" glyph-name="Iacute" horiz-adv-x="248" d="M90 693H158V0H90V693ZM263 878L92 739L59 777L217 929L263 878Z" />
<glyph unicode="&#xce;" glyph-name="Icircumflex" horiz-adv-x="248" d="M90 693H158V0H90V693ZM21 740L-7 771L125 918L257 771L229 740L125 836L21 740Z" />
<glyph unicode="&#xcf;" glyph-name="Idieresis" horiz-adv-x="248" d="M90 693H158V0H90V693ZM85 829Q85 807 72 794T39 781Q19 781 6 794T-7 829Q-7 851 6 864T39 877Q59 877 72 864T85 829ZM257 829Q257 807 244 794T211 781Q191 781 178 794T165 829Q165 851
178 864T211 877Q231 877 244 864T257 829Z" />
<glyph unicode="&#xd0;" glyph-name="Eth" horiz-adv-x="716" d="M654 347Q654 258 626 192T548 82T427 16T273 -6Q231 -6 185 -2T104 12V335H24V390H104V680Q139 690 185 694T273 699Q357 699 427 677T547 611T626 501T654 347ZM172 60Q178 59 202 56T281 53Q356
53 412 73T506 132T563 224T582 347Q582 415 563 469T506 561T412 619T281 640Q227 640 203 637T172 633V390H304V335H172V60Z" />
<glyph unicode="&#xd1;" glyph-name="Ntilde" horiz-adv-x="709" d="M562 0Q543 35 514 82T449 182T375 292T298 402T223 503T157 584V0H90V693H144Q195 636 253 562T368 410T472 258T552 129V693H619V0H562ZM417 785Q395 785 377 792T342 807Q323 817 311 820T289
824Q268 824 256 810T234 779L196 797Q201 809 209 823T229 849T256 869T292 877Q314 877 332 870T367 855Q386 845 398 842T420 838Q441 838 453 852T475 883L513 865Q508 853 500 839T480 813T453 793T417 785Z" />
<glyph unicode="&#xd2;" glyph-name="Ograve" horiz-adv-x="774" d="M712 347Q712 258 686 190T616 77T512 8T387 -15Q321 -15 262 8T159 76T88 190T62 347Q62 436 88 503T158 616T262 685T387 708Q453 708 512 685T615 617T686 504T712 347ZM640 347Q640 417
622 472T571 567T492 626T387 647Q329 647 283 627T203 567T152 473T134 347Q134 277 152 222T203 127T282 67T387 46Q445 46 491 67T571 127T622 221T640 347ZM295 929L453 777L420 739L249 878L295 929Z" />
<glyph unicode="&#xd3;" glyph-name="Oacute" horiz-adv-x="774" d="M712 347Q712 258 686 190T616 77T512 8T387 -15Q321 -15 262 8T159 76T88 190T62 347Q62 436 88 503T158 616T262 685T387 708Q453 708 512 685T615 617T686 504T712 347ZM640 347Q640 417
622 472T571 567T492 626T387 647Q329 647 283 627T203 567T152 473T134 347Q134 277 152 222T203 127T282 67T387 46Q445 46 491 67T571 127T622 221T640 347ZM525 878L354 739L321 777L479 929L525 878Z" />
<glyph unicode="&#xd4;" glyph-name="Ocircumflex" horiz-adv-x="774" d="M712 347Q712 258 686 190T616 77T512 8T387 -15Q321 -15 262 8T159 76T88 190T62 347Q62 436 88 503T158 616T262 685T387 708Q453 708 512 685T615 617T686 504T712 347ZM640 347Q640
417 622 472T571 567T492 626T387 647Q329 647 283 627T203 567T152 473T134 347Q134 277 152 222T203 127T282 67T387 46Q445 46 491 67T571 127T622 221T640 347ZM283 740L255 771L387 918L519 771L491 740L387 836L283 740Z" />
<glyph unicode="&#xd5;" glyph-name="Otilde" horiz-adv-x="774" d="M712 347Q712 258 686 190T616 77T512 8T387 -15Q321 -15 262 8T159 76T88 190T62 347Q62 436 88 503T158 616T262 685T387 708Q453 708 512 685T615 617T686 504T712 347ZM640 347Q640 417
622 472T571 567T492 626T387 647Q329 647 283 627T203 567T152 473T134 347Q134 277 152 222T203 127T282 67T387 46Q445 46 491 67T571 127T622 221T640 347ZM450 785Q428 785 410 792T375 807Q356 817 344 820T322 824Q301 824 289 810T267 779L229 797Q234
809 242 823T262 849T289 869T325 877Q347 877 365 870T400 855Q419 845 431 842T453 838Q474 838 486 852T508 883L546 865Q541 853 533 839T513 813T486 793T450 785Z" />
<glyph unicode="&#xd6;" glyph-name="Odieresis" horiz-adv-x="774" d="M712 347Q712 258 686 190T616 77T512 8T387 -15Q321 -15 262 8T159 76T88 190T62 347Q62 436 88 503T158 616T262 685T387 708Q453 708 512 685T615 617T686 504T712 347ZM640 347Q640 417
622 472T571 567T492 626T387 647Q329 647 283 627T203 567T152 473T134 347Q134 277 152 222T203 127T282 67T387 46Q445 46 491 67T571 127T622 221T640 347ZM347 829Q347 807 334 794T301 781Q281 781 268 794T255 829Q255 851 268 864T301 877Q321 877 334
864T347 829ZM519 829Q519 807 506 794T473 781Q453 781 440 794T427 829Q427 851 440 864T473 877Q493 877 506 864T519 829Z" />
<glyph unicode="&#xd7;" glyph-name="multiply" horiz-adv-x="564" d="M129 486L282 332L435 486L474 447L320 294L474 141L435 102L282 256L129 102L90 141L244 294L90 447L129 486Z" />
<glyph unicode="&#xd8;" glyph-name="Oslash" horiz-adv-x="774" d="M712 347Q712 258 686 190T616 77T512 8T387 -15Q333 -15 285 0T194 46L133 -34L85 2L150 86Q108 131 85 196T62 347Q62 436 88 503T158 616T262 685T387 708Q441 708 490 693T582 645L646 728L694
692L626 604Q666 559 689 495T712 347ZM134 347Q134 283 149 231T192 140L543 594Q478 647 387 647Q329 647 283 627T203 567T152 473T134 347ZM640 347Q640 410 626 461T584 550L233 96Q295 46 387 46Q445 46 491 67T571 127T622 221T640 347Z" />
<glyph unicode="&#xd9;" glyph-name="Ugrave" horiz-adv-x="680" d="M340 -15Q271 -15 223 6T144 64T101 150T87 257V693H155V266Q155 209 168 168T206 99T264 59T340 46Q382 46 416 59T474 99T511 167T525 266V693H593V257Q593 200 580 151T536 64T458 6T340
-15ZM248 929L406 777L373 739L202 878L248 929Z" />
<glyph unicode="&#xda;" glyph-name="Uacute" horiz-adv-x="680" d="M340 -15Q271 -15 223 6T144 64T101 150T87 257V693H155V266Q155 209 168 168T206 99T264 59T340 46Q382 46 416 59T474 99T511 167T525 266V693H593V257Q593 200 580 151T536 64T458 6T340
-15ZM478 878L307 739L274 777L432 929L478 878Z" />
<glyph unicode="&#xdb;" glyph-name="Ucircumflex" horiz-adv-x="680" d="M340 -15Q271 -15 223 6T144 64T101 150T87 257V693H155V266Q155 209 168 168T206 99T264 59T340 46Q382 46 416 59T474 99T511 167T525 266V693H593V257Q593 200 580 151T536 64T458 6T340
-15ZM236 740L208 771L340 918L472 771L444 740L340 836L236 740Z" />
<glyph unicode="&#xdc;" glyph-name="Udieresis" horiz-adv-x="680" d="M340 -15Q271 -15 223 6T144 64T101 150T87 257V693H155V266Q155 209 168 168T206 99T264 59T340 46Q382 46 416 59T474 99T511 167T525 266V693H593V257Q593 200 580 151T536 64T458 6T340
-15ZM300 829Q300 807 287 794T254 781Q234 781 221 794T208 829Q208 851 221 864T254 877Q274 877 287 864T300 829ZM472 829Q472 807 459 794T426 781Q406 781 393 794T380 829Q380 851 393 864T426 877Q446 877 459 864T472 829Z" />
<glyph unicode="&#xdd;" glyph-name="Yacute" horiz-adv-x="569" d="M251 0V285Q180 394 121 495T10 693H89Q131 605 181 515T287 342Q340 424 391 514T485 693H559Q506 598 447 496T319 287V0H251ZM423 878L252 739L219 777L377 929L423 878Z" />
<glyph unicode="&#xde;" glyph-name="Thorn" horiz-adv-x="593" d="M158 570Q175 572 206 574T263 576Q411 576 483 520T556 361Q556 302 535 261T475 194T380 157T252 145H158V0H90V693H158V570ZM266 517Q230 517 203 515T158 511V204H244Q299 204 343 210T419
234T468 283T485 362Q485 408 467 438T418 485T348 510T266 517Z" />
<glyph unicode="&#xdf;" glyph-name="germandbls" horiz-adv-x="596" d="M475 619Q475 593 467 572T446 533T419 502T395 478Q381 464 372 454T356 434T348 416T345 396Q345 382 351 371T368 352T392 338T418 325Q448 311 474 296T520 261T551 213T562 145Q562
70 511 29T369 -12Q320 -12 285 -2T240 14L254 74Q262 69 292 57T381 45Q435 45 465 72T495 145Q495 167 490 183T471 214T438 240T390 268Q357 285 336 298T302 324T284 353T279 390Q279 424 298 450T344 503Q359 519 371 531T392 557T405 584T410 616Q410 661
379 689T295 718Q218 718 185 675T151 560V0H86V564Q86 612 100 651T140 718T204 761T287 776Q385 776 430 733T475 619Z" />
<glyph unicode="&#xe0;" glyph-name="agrave" horiz-adv-x="509" d="M249 47Q287 47 315 49T364 56V238Q353 243 329 248T263 254Q239 254 213 251T165 236T129 204T115 151Q115 122 124 102T151 70T193 53T249 47ZM243 529Q294 529 329 515T387 475T419 414T429
338V12Q419 9 400 6T356 -2T301 -8T238 -11Q197 -11 163 -2T103 26T63 76T48 151Q48 193 64 223T109 272T178 301T265 310Q279 310 294 309T324 305T349 300T364 295V327Q364 354 360 379T343 425T305 458T240 471Q183 471 155 463T114 450L105 507Q122 515 157
522T243 529ZM168 773L326 621L293 583L122 722L168 773Z" />
<glyph unicode="&#xe1;" glyph-name="aacute" horiz-adv-x="509" d="M249 47Q287 47 315 49T364 56V238Q353 243 329 248T263 254Q239 254 213 251T165 236T129 204T115 151Q115 122 124 102T151 70T193 53T249 47ZM243 529Q294 529 329 515T387 475T419 414T429
338V12Q419 9 400 6T356 -2T301 -8T238 -11Q197 -11 163 -2T103 26T63 76T48 151Q48 193 64 223T109 272T178 301T265 310Q279 310 294 309T324 305T349 300T364 295V327Q364 354 360 379T343 425T305 458T240 471Q183 471 155 463T114 450L105 507Q122 515 157
522T243 529ZM398 722L227 583L194 621L352 773L398 722Z" />
<glyph unicode="&#xe2;" glyph-name="acircumflex" horiz-adv-x="509" d="M249 47Q287 47 315 49T364 56V238Q353 243 329 248T263 254Q239 254 213 251T165 236T129 204T115 151Q115 122 124 102T151 70T193 53T249 47ZM243 529Q294 529 329 515T387 475T419
414T429 338V12Q419 9 400 6T356 -2T301 -8T238 -11Q197 -11 163 -2T103 26T63 76T48 151Q48 193 64 223T109 272T178 301T265 310Q279 310 294 309T324 305T349 300T364 295V327Q364 354 360 379T343 425T305 458T240 471Q183 471 155 463T114 450L105 507Q122
515 157 522T243 529ZM156 584L128 615L260 762L392 615L364 584L260 680L156 584Z" />
<glyph unicode="&#xe3;" glyph-name="atilde" horiz-adv-x="509" d="M249 47Q287 47 315 49T364 56V238Q353 243 329 248T263 254Q239 254 213 251T165 236T129 204T115 151Q115 122 124 102T151 70T193 53T249 47ZM243 529Q294 529 329 515T387 475T419 414T429
338V12Q419 9 400 6T356 -2T301 -8T238 -11Q197 -11 163 -2T103 26T63 76T48 151Q48 193 64 223T109 272T178 301T265 310Q279 310 294 309T324 305T349 300T364 295V327Q364 354 360 379T343 425T305 458T240 471Q183 471 155 463T114 450L105 507Q122 515 157
522T243 529ZM323 629Q301 629 283 636T248 651Q229 661 217 664T195 668Q174 668 162 654T140 623L102 641Q107 653 115 667T135 693T162 713T198 721Q220 721 238 714T273 699Q292 689 304 686T326 682Q347 682 359 696T381 727L419 709Q414 697 406 683T386
657T359 637T323 629Z" />
<glyph unicode="&#xe4;" glyph-name="adieresis" horiz-adv-x="509" d="M249 47Q287 47 315 49T364 56V238Q353 243 329 248T263 254Q239 254 213 251T165 236T129 204T115 151Q115 122 124 102T151 70T193 53T249 47ZM243 529Q294 529 329 515T387 475T419 414T429
338V12Q419 9 400 6T356 -2T301 -8T238 -11Q197 -11 163 -2T103 26T63 76T48 151Q48 193 64 223T109 272T178 301T265 310Q279 310 294 309T324 305T349 300T364 295V327Q364 354 360 379T343 425T305 458T240 471Q183 471 155 463T114 450L105 507Q122 515 157
522T243 529ZM220 673Q220 651 207 638T174 625Q154 625 141 638T128 673Q128 695 141 708T174 721Q194 721 207 708T220 673ZM392 673Q392 651 379 638T346 625Q326 625 313 638T300 673Q300 695 313 708T346 721Q366 721 379 708T392 673Z" />
<glyph unicode="&#xe5;" glyph-name="aring" horiz-adv-x="509" d="M249 47Q287 47 315 49T364 56V238Q353 243 329 248T263 254Q239 254 213 251T165 236T129 204T115 151Q115 122 124 102T151 70T193 53T249 47ZM243 529Q294 529 329 515T387 475T419 414T429
338V12Q419 9 400 6T356 -2T301 -8T238 -11Q197 -11 163 -2T103 26T63 76T48 151Q48 193 64 223T109 272T178 301T265 310Q279 310 294 309T324 305T349 300T364 295V327Q364 354 360 379T343 425T305 458T240 471Q183 471 155 463T114 450L105 507Q122 515 157
522T243 529ZM356 676Q356 654 349 637T328 607T298 587T261 580Q222 580 194 606T165 676Q165 719 193 745T261 771Q280 771 297 764T328 745T348 715T356 676ZM318 676Q318 704 302 719T261 735Q237 735 221 720T204 676Q204 647 220 632T261 617Q285 617 301
632T318 676Z" />
<glyph unicode="&#xe6;" glyph-name="ae" horiz-adv-x="854" d="M728 300Q726 381 690 426T588 471Q553 471 526 457T478 420T446 365T432 300H728ZM252 -11Q208 -11 171 -2T106 26T64 76T48 151Q48 193 64 223T109 272T178 301T265 310Q279 310 294 309T324 305T349
300T364 295V327Q364 354 360 379T343 425T305 458T240 471Q186 471 156 464T113 451L105 507Q122 515 158 522T243 529Q314 529 354 503T412 431Q445 480 491 504T587 529Q682 529 738 467T795 276Q795 268 795 260T793 245H430Q433 150 477 99T617 48Q670 48
701 58T746 75L758 19Q744 11 706 0T615 -11Q558 -11 514 3T437 49Q426 40 410 30T370 10T318 -5T252 -11ZM365 238Q354 243 330 248T263 254Q239 254 213 251T165 236T129 204T115 151Q115 122 125 102T153 70T197 53T252 47Q314 47 350 63T400 93Q384 119 375
154T365 238Z" />
<glyph unicode="&#xe7;" glyph-name="ccedilla" horiz-adv-x="460" d="M294 -36Q322 -48 338 -65T355 -112Q355 -124 351 -137T336 -162T306 -180T257 -187Q237 -187 216 -184T186 -175L194 -132Q205 -137 219 -139T253 -141Q294 -141 294 -112Q294 -95 280 -86T236
-65Q240 -53 246 -38T261 -8Q160 4 108 75T55 257Q55 318 71 368T119 454T194 509T293 529Q335 529 371 522T428 504L411 448Q391 458 366 464T299 470Q213 470 169 415T124 257Q124 211 134 173T166 107T224 64T311 48Q353 48 381 57T423 74L437 18Q420 8 383
-1T305 -11Q302 -18 299 -24T294 -36Z" />
<glyph unicode="&#xe8;" glyph-name="egrave" horiz-adv-x="548" d="M55 259Q55 327 74 377T125 462T197 512T281 529Q376 529 432 467T489 276Q489 268 489 260T487 245H124Q127 150 171 99T311 48Q364 48 395 58T440 75L452 19Q438 11 400 0T309 -11Q241 -11
193 9T114 65T69 150T55 259ZM422 300Q420 381 384 426T282 471Q247 471 220 457T172 420T140 365T126 300H422ZM188 773L346 621L313 583L142 722L188 773Z" />
<glyph unicode="&#xe9;" glyph-name="eacute" horiz-adv-x="548" d="M55 259Q55 327 74 377T125 462T197 512T281 529Q376 529 432 467T489 276Q489 268 489 260T487 245H124Q127 150 171 99T311 48Q364 48 395 58T440 75L452 19Q438 11 400 0T309 -11Q241 -11
193 9T114 65T69 150T55 259ZM422 300Q420 381 384 426T282 471Q247 471 220 457T172 420T140 365T126 300H422ZM418 722L247 583L214 621L372 773L418 722Z" />
<glyph unicode="&#xea;" glyph-name="ecircumflex" horiz-adv-x="548" d="M55 259Q55 327 74 377T125 462T197 512T281 529Q376 529 432 467T489 276Q489 268 489 260T487 245H124Q127 150 171 99T311 48Q364 48 395 58T440 75L452 19Q438 11 400 0T309 -11Q241
-11 193 9T114 65T69 150T55 259ZM422 300Q420 381 384 426T282 471Q247 471 220 457T172 420T140 365T126 300H422ZM176 584L148 615L280 762L412 615L384 584L280 680L176 584Z" />
<glyph unicode="&#xeb;" glyph-name="edieresis" horiz-adv-x="548" d="M55 259Q55 327 74 377T125 462T197 512T281 529Q376 529 432 467T489 276Q489 268 489 260T487 245H124Q127 150 171 99T311 48Q364 48 395 58T440 75L452 19Q438 11 400 0T309 -11Q241
-11 193 9T114 65T69 150T55 259ZM422 300Q420 381 384 426T282 471Q247 471 220 457T172 420T140 365T126 300H422ZM240 673Q240 651 227 638T194 625Q174 625 161 638T148 673Q148 695 161 708T194 721Q214 721 227 708T240 673ZM412 673Q412 651 399 638T366
625Q346 625 333 638T320 673Q320 695 333 708T366 721Q386 721 399 708T412 673Z" />
<glyph unicode="&#xec;" glyph-name="igrave" horiz-adv-x="237" d="M151 0H86V517H151V0ZM283 773L441 621L408 583L237 722L283 773Z" />
<glyph unicode="&#xed;" glyph-name="iacute" horiz-adv-x="237" d="M151 0H86V517H151V0ZM513 722L342 583L309 621L467 773L513 722Z" />
<glyph unicode="&#xee;" glyph-name="icircumflex" horiz-adv-x="237" d="M151 0H86V517H151V0ZM271 584L243 615L375 762L507 615L479 584L375 680L271 584Z" />
<glyph unicode="&#xef;" glyph-name="idieresis" horiz-adv-x="237" d="M151 0H86V517H151V0ZM335 673Q335 651 322 638T289 625Q269 625 256 638T243 673Q243 695 256 708T289 721Q309 721 322 708T335 673ZM507 673Q507 651 494 638T461 625Q441 625 428 638T415
673Q415 695 428 708T461 721Q481 721 494 708T507 673Z" />
<glyph unicode="&#xf0;" glyph-name="eth" horiz-adv-x="578" d="M433 634Q474 571 496 495T518 330Q518 270 509 209T473 99T399 19T277 -12Q225 -12 184 8T115 64T71 145T55 245Q55 303 72 348T119 424T192 471T286 487Q316 487 340 482T384 468T418 451T441
435Q436 477 419 523T373 613L242 567L225 612L343 653Q302 702 245 737L288 776Q355 735 403 675L523 717L540 672L433 634ZM450 331Q450 340 450 348T449 366Q414 401 375 415T294 429Q249 429 217 415T164 376T133 318T123 245Q123 205 133 169T162 106T210
63T277 47Q331 47 364 71T417 136T443 227T450 331Z" />
<glyph unicode="&#xf1;" glyph-name="ntilde" horiz-adv-x="569" d="M86 499Q115 507 164 517T284 527Q343 527 382 510T445 462T479 386T489 289V0H424V268Q424 323 417 361T392 423T346 457T274 468Q228 468 195 463T151 454V0H86V499ZM350 629Q328 629 310
636T275 651Q256 661 244 664T222 668Q201 668 189 654T167 623L129 641Q134 653 142 667T162 693T189 713T225 721Q247 721 265 714T300 699Q319 689 331 686T353 682Q374 682 386 696T408 727L446 709Q441 697 433 683T413 657T386 637T350 629Z" />
<glyph unicode="&#xf2;" glyph-name="ograve" horiz-adv-x="582" d="M527 258Q527 197 510 147T461 62T386 8T291 -12Q239 -12 196 7T122 62T73 147T55 258Q55 319 72 369T121 454T196 509T291 529Q343 529 386 510T460 455T509 369T527 258ZM458 258Q458 355
413 412T291 470Q214 470 169 413T124 258Q124 161 169 104T291 47Q368 47 413 104T458 258ZM199 773L357 621L324 583L153 722L199 773Z" />
<glyph unicode="&#xf3;" glyph-name="oacute" horiz-adv-x="582" d="M527 258Q527 197 510 147T461 62T386 8T291 -12Q239 -12 196 7T122 62T73 147T55 258Q55 319 72 369T121 454T196 509T291 529Q343 529 386 510T460 455T509 369T527 258ZM458 258Q458 355
413 412T291 470Q214 470 169 413T124 258Q124 161 169 104T291 47Q368 47 413 104T458 258ZM429 722L258 583L225 621L383 773L429 722Z" />
<glyph unicode="&#xf4;" glyph-name="ocircumflex" horiz-adv-x="582" d="M527 258Q527 197 510 147T461 62T386 8T291 -12Q239 -12 196 7T122 62T73 147T55 258Q55 319 72 369T121 454T196 509T291 529Q343 529 386 510T460 455T509 369T527 258ZM458 258Q458
355 413 412T291 470Q214 470 169 413T124 258Q124 161 169 104T291 47Q368 47 413 104T458 258ZM187 584L159 615L291 762L423 615L395 584L291 680L187 584Z" />
<glyph unicode="&#xf5;" glyph-name="otilde" horiz-adv-x="582" d="M527 258Q527 197 510 147T461 62T386 8T291 -12Q239 -12 196 7T122 62T73 147T55 258Q55 319 72 369T121 454T196 509T291 529Q343 529 386 510T460 455T509 369T527 258ZM458 258Q458 355
413 412T291 470Q214 470 169 413T124 258Q124 161 169 104T291 47Q368 47 413 104T458 258ZM354 629Q332 629 314 636T279 651Q260 661 248 664T226 668Q205 668 193 654T171 623L133 641Q138 653 146 667T166 693T193 713T229 721Q251 721 269 714T304 699Q323
689 335 686T357 682Q378 682 390 696T412 727L450 709Q445 697 437 683T417 657T390 637T354 629Z" />
<glyph unicode="&#xf6;" glyph-name="odieresis" horiz-adv-x="582" d="M527 258Q527 197 510 147T461 62T386 8T291 -12Q239 -12 196 7T122 62T73 147T55 258Q55 319 72 369T121 454T196 509T291 529Q343 529 386 510T460 455T509 369T527 258ZM458 258Q458 355
413 412T291 470Q214 470 169 413T124 258Q124 161 169 104T291 47Q368 47 413 104T458 258ZM251 673Q251 651 238 638T205 625Q185 625 172 638T159 673Q159 695 172 708T205 721Q225 721 238 708T251 673ZM423 673Q423 651 410 638T377 625Q357 625 344 638T331
673Q331 695 344 708T377 721Q397 721 410 708T423 673Z" />
<glyph unicode="&#xf7;" glyph-name="divide" horiz-adv-x="564" d="M281 51Q261 51 248 65T234 100Q234 122 247 136T281 150Q302 150 315 136T329 100Q329 79 316 65T281 51ZM281 427Q261 427 248 441T234 477Q234 498 247 512T281 526Q302 526 315 512T329
477Q329 455 316 441T281 427ZM56 317H508V261H56V317Z" />
<glyph unicode="&#xf8;" glyph-name="oslash" horiz-adv-x="582" d="M527 258Q527 197 510 147T461 62T386 8T291 -12Q211 -12 152 33L101 -34L58 -2L114 70Q85 105 70 152T55 258Q55 319 72 369T121 454T196 509T291 529Q372 529 432 481L483 548L525 517L469
444Q497 409 512 362T527 258ZM124 258Q124 178 155 124L394 432Q374 450 348 460T291 470Q214 470 169 413T124 258ZM458 258Q458 336 427 390L190 82Q231 47 291 47Q368 47 413 104T458 258Z" />
<glyph unicode="&#xf9;" glyph-name="ugrave" horiz-adv-x="569" d="M483 18Q454 10 405 0T285 -10Q227 -10 188 7T125 55T91 130T80 227V517H145V248Q145 193 153 155T179 94T225 60T295 49Q341 49 375 54T418 63V517H483V18ZM189 773L347 621L314 583L143 722L189 773Z" />
<glyph unicode="&#xfa;" glyph-name="uacute" horiz-adv-x="569" d="M483 18Q454 10 405 0T285 -10Q227 -10 188 7T125 55T91 130T80 227V517H145V248Q145 193 153 155T179 94T225 60T295 49Q341 49 375 54T418 63V517H483V18ZM419 722L248 583L215 621L373 773L419 722Z" />
<glyph unicode="&#xfb;" glyph-name="ucircumflex" horiz-adv-x="569" d="M483 18Q454 10 405 0T285 -10Q227 -10 188 7T125 55T91 130T80 227V517H145V248Q145 193 153 155T179 94T225 60T295 49Q341 49 375 54T418 63V517H483V18ZM177 584L149 615L281 762L413
615L385 584L281 680L177 584Z" />
<glyph unicode="&#xfc;" glyph-name="udieresis" horiz-adv-x="569" d="M483 18Q454 10 405 0T285 -10Q227 -10 188 7T125 55T91 130T80 227V517H145V248Q145 193 153 155T179 94T225 60T295 49Q341 49 375 54T418 63V517H483V18ZM241 673Q241 651 228 638T195
625Q175 625 162 638T149 673Q149 695 162 708T195 721Q215 721 228 708T241 673ZM413 673Q413 651 400 638T367 625Q347 625 334 638T321 673Q321 695 334 708T367 721Q387 721 400 708T413 673Z" />
<glyph unicode="&#xfd;" glyph-name="yacute" horiz-adv-x="474" d="M227 -11Q194 50 164 116T107 249T58 384T20 517H89Q100 469 117 414T155 299T203 178T259 56Q281 118 298 173T329 282T357 394T386 517H451Q419 372 378 235T289 -16Q270 -61 250 -93T206
-147T149 -178T72 -188Q47 -188 27 -182T1 -173L14 -119Q18 -122 36 -127T75 -133Q103 -133 125 -127T166 -107T198 -69T227 -11ZM386 722L215 583L182 621L340 773L386 722Z" />
<glyph unicode="&#xfe;" glyph-name="thorn" horiz-adv-x="583" d="M151 776V502Q215 527 278 527Q334 527 380 508T459 454T510 369T528 257Q528 198 513 149T467 64T394 8T294 -12Q243 -12 206 2T151 30V-185H86V764L151 776ZM151 93Q160 86 173 78T205 63T244
52T288 47Q336 47 368 63T421 108T450 175T459 257Q459 358 408 413T272 468Q230 468 196 459T151 445V93Z" />
<glyph unicode="&#xff;" glyph-name="ydieresis" horiz-adv-x="474" d="M227 -11Q194 50 164 116T107 249T58 384T20 517H89Q100 469 117 414T155 299T203 178T259 56Q281 118 298 173T329 282T357 394T386 517H451Q419 372 378 235T289 -16Q270 -61 250 -93T206
-147T149 -178T72 -188Q47 -188 27 -182T1 -173L14 -119Q18 -122 36 -127T75 -133Q103 -133 125 -127T166 -107T198 -69T227 -11ZM208 673Q208 651 195 638T162 625Q142 625 129 638T116 673Q116 695 129 708T162 721Q182 721 195 708T208 673ZM380 673Q380 651
367 638T334 625Q314 625 301 638T288 673Q288 695 301 708T334 721Q354 721 367 708T380 673Z" />
<glyph unicode="&#x2013;" glyph-name="endash" horiz-adv-x="496" d="M-2 318H498V261H-2V318Z" />
<glyph unicode="&#x2014;" glyph-name="emdash" horiz-adv-x="996" d="M-2 318H998V261H-2V318Z" />
<glyph unicode="&#x2018;" glyph-name="quoteleft" horiz-adv-x="230" d="M74 542Q74 599 91 650T142 753L190 731Q165 683 156 643T146 568Q146 557 146 549T147 532H74V542Z" />
<glyph unicode="&#x2019;" glyph-name="quoteright" horiz-adv-x="230" d="M156 731Q156 674 139 623T88 520L40 542Q65 590 74 630T84 705Q84 716 84 724T83 741H156V731Z" />
<glyph unicode="&#x201a;" glyph-name="quotesinglbase" horiz-adv-x="230" d="M156 95V85Q156 28 139 -23T88 -126L40 -104Q65 -56 74 -16T84 59Q84 70 84 78T83 95H156Z" />
<glyph unicode="&#x201c;" glyph-name="quotedblleft" horiz-adv-x="392" d="M74 542Q74 599 91 650T142 753L190 731Q165 683 156 643T146 568Q146 557 146 549T147 532H74V542ZM236 542Q236 599 253 650T304 753L352 731Q327 683 318 643T308 568Q308 557 308
549T309 532H236V542Z" />
<glyph unicode="&#x201d;" glyph-name="quotedblright" horiz-adv-x="392" d="M156 731Q156 674 139 623T88 520L40 542Q65 590 74 630T84 705Q84 716 84 724T83 741H156V731ZM318 731Q318 674 301 623T250 520L202 542Q227 590 236 630T246 705Q246 716 246 724T245
741H318V731Z" />
<glyph unicode="&#x201e;" glyph-name="quotedblbase" horiz-adv-x="392" d="M156 95V85Q156 28 139 -23T88 -126L40 -104Q65 -56 74 -16T84 59Q84 70 84 78T83 95H156ZM318 95V85Q318 28 301 -23T250 -126L202 -104Q227 -56 236 -16T246 59Q246 70 246 78T245 95H318Z" />
<glyph unicode="&#x2022;" glyph-name="bullet" horiz-adv-x="360" d="M300 353Q300 329 292 307T268 269T230 243T180 233Q152 233 130 242T92 268T68 307T60 353Q60 377 68 398T91 436T129 463T180 473Q208 473 230 463T267 437T291 399T300 353Z" />
<glyph unicode="&#x2039;" glyph-name="guilsinglleft" horiz-adv-x="275" d="M188 72L36 284L188 495L229 469L113 284L229 98L188 72Z" />
<glyph unicode="&#x203a;" glyph-name="guilsinglright" horiz-adv-x="275" d="M46 98L162 284L46 469L87 495L239 284L87 72L46 98Z" />
</font>
</defs>
</svg>
